Torrent Details

Photo Not Available
Deadpool 2 2018 720p HDTC x264 AAC
Size1003 MB in 3 files
ReleasesAdded Today at 20:05 into the Movies category by Unknown.
Status39 seeds & 12 peers.
Hashcc5866f86ed1c761672f93b13d69c06b9490ecf0
Rating
  • YourBT Visitors

Status This torrent has been verified.
*

Torrent Description

******************************Thumbnail:**********************



******************************Screenshots:********************

Screenshot 1

Screenshot 2

Screenshot 3

Screenshot 4

Screenshot 5

Screenshot 6

Screenshot 7

Screenshot 8

Screenshot 9

Screenshot 0

**************************************************************

Complete name : Deadpool.2.2018.720p.HDTC.x264.AAC.LLG.mp4
Format : MPEG-4
Format profile : Base Media
Codec ID : isom (isom/iso2/avc1/mp41)
File size : 991 MiB
Duration : 1 h 49 min
Overall bit rate : 1 266 kb/s
Writing application : Lavf57.56.101

Video
ID : 1
Format : AVC
Format/Info : Advanced Video Codec
Format profile : [email protected]
Format settings : CABAC / 4 Ref Frames
Format settings, CABAC : Yes
Format settings, RefFrames : 4 frames
Codec ID : avc1
Codec ID/Info : Advanced Video Coding
Duration : 1 h 49 min
Bit rate : 1 200 kb/s
Width : 1 280 pixels
Height : 548 pixels
Display aspect ratio : 2.35:1
Frame rate mode : Constant
Frame rate : 23.976 (23976/1000) FPS
Color space : YUV
Chroma subsampling : 4:2:0
Bit depth : 8 bits
Scan type : Progressive
Bits/(Pixel*Frame) : 0.071
Stream size : 935 MiB (94%)

Audio
ID : 2
Format : AAC
Format/Info : Advanced Audio Codec
Format profile : LC
Codec ID : mp4a-40-2
Duration : 1 h 49 min
Bit rate mode : Constant
Bit rate : 66.2 kb/s
Channel(s) : 2 channels
Channel positions : Front: L R
Sampling rate : 48.0 kHz
Frame rate : 46.875 FPS (1024 SPF)
Compression mode : Lossy
Stream size : 50.8 MiB (5%)
Language : English
Default : Yes
Alternate group : 1



**************************************************************



Similar Torrents

No Similar Torrents Found

If we find similar torrents, we normally show them right here. We couldn't find anything for "".

Torrent Trackers

TRACKER URLSEEDSPEERS
Onlineudp://tracker.pirateparty.gr:6969/announce3912
Onlineudp://tracker.coppersurfer.tk:6969/announce3411
Onlineudp://tracker.opentrackr.org:1337/announce334
Onlineudp://tracker.open-internet.nl:6969/announce305

Files inside this torrent

FILENAMESIZE
icon Deadpool.2.2018.720p.HDTC.x264.AAC.LLG.mp4990.7 MB
icon Sample.mp412.8 MB
icon Seed By.txt171 B