Torrent Details

Photo Not Available
Avengers Infinity War 2018 NEW PROPER HD-CAM X264 Dual Audio [Hindi - English] ~ Ranvijay
Size1.2 GB in 4 files
ReleasesAdded Yesterday at 15:44 into the Movies category by Unknown.
Status9 seeds & 11 peers.
Hashf1167de743e3523f0b19a7b15e3ac34b6f620ecb
Rating
  • YourBT Visitors

Status This torrent has been verified.
*

Torrent Description

Format : Matroska
Format version : Version 4 / Version 2
File size : 1.14 GiB
Duration : 2 h 29 min
Overall bit rate : 1 096 kb/s
Movie name : Avengers Infinity War 2018 NEW PROPER HD-CAM X264 Dual Audio [Hindi - English] ~ Ranvijay

Video
ID : 1
Format : AVC
Duration : 2 h 29 min
Bit rate : 513 kb/s
Width : 720 pixels
Height : 288 pixels
Display aspect ratio : 2.500
Frame rate mode : Constant
Frame rate : 30.000 FPS
Color space : YUV
Chroma subsampling : 4:2:0
Bit depth : 8 bits
Scan type : Progressive
Bits/(Pixel*Frame) : 0.082
Stream size : 548 MiB (47%)
Title : ~Ranvijay~
Default : Yes
Forced : No

Audio #1
ID : 2
Format : AAC
Format/Info : Advanced Audio Codec
Format profile : LC
Codec ID : A_AAC-2
Duration : 2 h 29 min
Bit rate : 384 kb/s
Channel(s) : 2 channels
Channel positions : Front: L R
Sampling rate : 44.1 kHz
Frame rate : 43.066 FPS (1024 SPF)
Compression mode : Lossy
Delay relative to video : 16 ms
Stream size : 408 MiB (35%)
Title : ~Ranvijay~
Language : English
Default : Yes
Forced : No

Audio #2
ID : 3
Format : AAC
Format/Info : Advanced Audio Codec
Format profile : LC
Codec ID : A_AAC-2
Duration : 2 h 28 min
Bit rate : 199 kb/s
Channel(s) : 2 channels
Channel positions : Front: L R
Sampling rate : 44.1 kHz
Frame rate : 43.066 FPS (1024 SPF)
Compression mode : Lossy
Stream size : 212 MiB (18%)
Title : ~Ranvijay~
Language : Hindi
Default : No
Forced : No










Similar Torrents

No Similar Torrents Found

If we find similar torrents, we normally show them right here. We couldn't find anything for "".

Torrent Trackers

TRACKER URLSEEDSPEERS
Onlineudp://tracker.pirateparty.gr:6969/announce911
Onlineudp://tracker.coppersurfer.tk:6969/announce50
Onlineudp://tracker.opentrackr.org:1337/announce12
Onlineudp://tracker.open-internet.nl:6969/announce00

Files inside this torrent

FILENAMESIZE
icon Avengers Infinity War 2018 NEW PROPER HD-CAM X264 Dual Audio [Hindi - English] ~ Ranvijay.mkv1.1 GB
icon DM-Movies – Download Movies For Free.url57 B
icon SAMPLE.mkv20.7 MB
icon ShareSpark.net - Sharing Entire World of Entertainment.url57 B