Torrent Details

Photo Not Available
The Girl in Me 2014 720p WEBRip AAC 2 0 x264 [MW]
Size537 MB in 1 file
ReleasesAdded on 12.07.2018 at 19:53 into the Movies category by Unknown.
Status0 seeds & 1 peers.
Hash5faaa5453cf7b37fa3fc86bad8ccde1f8e409eaa
Rating
  • YourBT Visitors

Status This torrent has been verified.
*

Torrent Description

General
Format : Matroska
Format version : Version 4 / Version 2
File size : 537 MiB
Duration : 43 min 53 s
Overall bit rate : 1 711 kb/s

Video
ID : 1
Format : AVC
Format/Info : Advanced Video Codec
Format profile : [email protected]
Format settings : CABAC / 4 Ref Frames
Format settings, CABAC : Yes
Format settings, RefFrames : 4 frames
Codec ID : V_MPEG4/ISO/AVC
Duration : 43 min 53 s
Bit rate : 1 500 kb/s
Width : 1 280 pixels
Height : 720 pixels
Display aspect ratio : 16:9
Frame rate mode : Constant
Frame rate : 25.000 FPS
Color space : YUV
Chroma subsampling : 4:2:0
Bit depth : 8 bits
Scan type : Progressive
Bits/(Pixel*Frame) : 0.065
Stream size : 476 MiB (89%)
Writing library : x264 core 155 r2893 b00bcaf
Default : Yes
Forced : No

Audio
ID : 2
Format : AAC
Format/Info : Advanced Audio Codec
Format profile : LC
Codec ID : A_AAC-2
Duration : 43 min 53 s
Bit rate : 192 kb/s
Channel(s) : 2 channels
Channel positions : Front: L R
Sampling rate : 48.0 kHz
Frame rate : 46.875 FPS (1024 SPF)
Compression mode : Lossy
Stream size : 60.3 MiB (11%)
Language : Hindi
Default : Yes
Forced : No













Similar Torrents

No Similar Torrents Found

If we find similar torrents, we normally show them right here. We couldn't find anything for "".

Torrent Trackers

TRACKER URLSEEDSPEERS
Onlineudp://tracker.opentrackr.org:1337/announce00
Onlineudp://tracker.coppersurfer.tk:6969/announce01
Onlineudp://tracker.pirateparty.gr:6969/announce01
Onlineudp://tracker.open-internet.nl:6969/announce01

Files inside this torrent

FILENAMESIZE
icon The Girl in Me 2014 720p WEBRip AAC 2.0 x264 [MW].mkv537 MB