Torrent Details

Photo Not Available
Avengers Infinity War 2018 1080p BluRay x264 DTS [MW]
Size3.9 GB in 1 file
ReleasesAdded on 08/03/18 at 3:20pm into the Movies category by Unknown.
Status110 seeds & 21 peers.
Hash0b87a50f4ccc0befc09c9f28744a9b9720c0cce1
Rating
  • YourBT Visitors

Status This torrent has been verified.
*

Torrent Description

General
Format : Matroska
Format version : Version 4 / Version 2
File size : 3.89 GiB
Duration : 2 h 29 min
Overall bit rate : 3 731 kb/s

Video
ID : 1
Format : AVC
Format/Info : Advanced Video Codec
Format profile : [email protected]
Format settings : CABAC / 4 Ref Frames
Format settings, CABAC : Yes
Format settings, RefFrames : 4 frames
Codec ID : V_MPEG4/ISO/AVC
Duration : 2 h 29 min
Bit rate : 3 000 kb/s
Width : 1 920 pixels
Height : 804 pixels
Display aspect ratio : 2.40:1
Frame rate mode : Constant
Frame rate : 23.976 (24000/1001) FPS
Color space : YUV
Chroma subsampling : 4:2:0
Bit depth : 8 bits
Scan type : Progressive
Bits/(Pixel*Frame) : 0.081
Stream size : 3.10 GiB (80%)
Writing library : x264 core 155 r2901 7d0ff22
Default : Yes
Forced : No

Audio
ID : 4
Format : DTS
Format/Info : Digital Theater Systems
Codec ID : A_DTS
Duration : 2 h 29 min
Bit rate mode : Constant
Bit rate : 756 kb/s
Channel(s) : 6 channels
Channel positions : Front: L C R, Side: L R, LFE
Sampling rate : 48.0 kHz
Frame rate : 93.750 FPS (512 SPF)
Bit depth : 16 bits
Compression mode : Lossy
Stream size : 808 MiB (20%)
Language : English
Default : No
Forced : No

Text #1
ID : 2
Format : VobSub
Muxing mode : zlib
Codec ID : S_VOBSUB
Codec ID/Info : Picture based subtitle format used on DVDs
Duration : 2 h 28 min
Bit rate : 5 662 b/s
Count of elements : 2067
Stream size : 6.01 MiB (0%)
Language : English
Default : Yes
Forced : No

Text #2
ID : 3
Format : VobSub
Muxing mode : zlib
Codec ID : S_VOBSUB
Codec ID/Info : Picture based subtitle format used on DVDs
Duration : 1 s 115 ms
Bit rate : 16.0 kb/s
Count of elements : 1
Stream size : 2.18 KiB (0%)
Language : English
Default : No
Forced : No


Click To Enlarge Image








Similar Torrents

No Similar Torrents Found

If we find similar torrents, we normally show them right here. We couldn't find anything for "".

Torrent Trackers

TRACKER URLSEEDSPEERS
Onlineudp://tracker.coppersurfer.tk:6969/announce11021
Onlineudp://tracker.pirateparty.gr:6969/announce10921
Onlineudp://tracker.open-internet.nl:6969/announce549

Files inside this torrent

FILENAMESIZE
icon Avengers Infinity War 2018 1080p BluRay x264 DTS [MW].mkv3.9 GB